<?xml version="1.0" standalone="no"?><!DOCTYPE svg PUBLIC "-//W3C//DTD SVG 1.1//EN" "http://www.w3.org/Graphics/SVG/1.1/DTD/svg11.dtd" ><svg xmlns="http://www.w3.org/2000/svg"><metadata></metadata><defs><font id="colgate_readyregular" horiz-adv-x="1249" ><font-face units-per-em="2048" ascent="1520" descent="-528" /><missing-glyph horiz-adv-x="454" /><glyph unicode="&#xfb01;" horiz-adv-x="1355" d="M152 0v1094q0 209 114.5 317.5t329.5 108.5q118 0 240 -31l-27 -170q-102 29 -197 29q-132 0 -191 -59.5t-59 -194.5v-43h429l-62 -177h-367v-874h-210zM977 1251v207l219 58v-265h-219zM981 0v1069h211v-1069h-211z" /><glyph unicode="&#xfb02;" horiz-adv-x="1355" d="M152 0v1094q0 209 114.5 317.5t329.5 108.5q118 0 240 -31l-27 -170q-102 29 -197 29q-132 0 -191 -59.5t-59 -194.5v-43h429l-62 -177h-367v-874h-210zM981 0v1444l211 57v-1501h-211z" /><glyph unicode="&#xfb03;" horiz-adv-x="2185" d="M152 0v1094q0 209 114.5 317.5t329.5 108.5q118 0 240 -31l-27 -170q-102 29 -197 29q-132 0 -191 -59.5t-59 -194.5v-43h429l-62 -177h-367v-874h-210zM981 0v1094q0 209 114.5 317.5t329.5 108.5q118 0 240 -31l-27 -170q-102 29 -196 29q-132 0 -191 -59.5t-59 -194.5 v-43h428l-61 -177h-367v-874h-211zM1806 1251v207l219 58v-265h-219zM1810 0v1069h211v-1069h-211z" /><glyph unicode="&#xfb04;" horiz-adv-x="2185" d="M152 0v1094q0 209 114.5 317.5t329.5 108.5q118 0 240 -31l-27 -170q-102 29 -197 29q-132 0 -191 -59.5t-59 -194.5v-43h429l-62 -177h-367v-874h-210zM981 0v1094q0 209 114.5 317.5t329.5 108.5q118 0 240 -31l-27 -170q-102 29 -196 29q-132 0 -191 -59.5t-59 -194.5 v-43h428l-61 -177h-367v-874h-211zM1810 0v1444l211 57v-1501h-211z" /><glyph horiz-adv-x="0" /><glyph horiz-adv-x="0" /><glyph horiz-adv-x="682" /><glyph unicode="&#xd;" horiz-adv-x="454" /><glyph unicode=" "  horiz-adv-x="454" /><glyph unicode="&#x09;" horiz-adv-x="454" /><glyph unicode="&#xa0;" horiz-adv-x="454" /><glyph unicode="!" horiz-adv-x="569" d="M174 1403h221l-30 -1018h-162zM182 0v176l203 45v-221h-203z" /><glyph unicode="&#x22;" horiz-adv-x="790" d="M127 1485l195 45l-21 -518h-154zM469 1485l195 45l-21 -518h-154z" /><glyph unicode="#" d="M-2 387v162h240l51 297h-219v164h245l66 374h180l-63 -374h317l66 374h182l-66 -374h254l-51 -164h-231l-49 -297h262l-54 -162h-237l-66 -387h-182l66 387h-320l-65 -387h-181l66 387h-211zM418 549h317l53 297h-319z" /><glyph unicode="$" d="M143 76l25 194q196 -102 391 -108v469q-65 20 -108.5 36t-100 48t-90.5 70t-58 98t-24 135q0 172 111.5 268.5t302.5 114.5v194h141v-192q121 -7 307 -55l-14 -187q-158 51 -293 60v-428q60 -18 101 -33t89 -38t79 -50.5t58.5 -64.5t40.5 -86.5t13 -110.5 q0 -181 -112 -289.5t-302 -132.5v-181h-141v173q-233 10 -416 96zM399 1032q0 -77 46 -119t147 -75v379q-193 -27 -193 -185zM700 172q95 21 144 78t49 137q0 79 -47.5 123t-145.5 78v-416z" /><glyph unicode="%" horiz-adv-x="1755" d="M102 1069q0 154 87 245t251 91q163 0 249.5 -91t86.5 -245q0 -153 -86.5 -243.5t-249.5 -90.5q-165 0 -251.5 90t-86.5 244zM289 1069q0 -91 39 -138.5t112 -47.5q72 0 111 47t39 139t-39 140t-111 48q-73 0 -112 -48t-39 -140zM309 72l969 1368l166 -99l-971 -1376z M979 313q0 154 87 245t251 91q163 0 249.5 -91t86.5 -245q0 -153 -86.5 -243t-249.5 -90q-165 0 -251.5 90t-86.5 243zM1165 313q0 -91 39.5 -138.5t112.5 -47.5q72 0 110.5 47t38.5 139q0 93 -39 141t-110 48q-73 0 -112.5 -48.5t-39.5 -140.5z" /><glyph unicode="&#x26;" horiz-adv-x="1492" d="M66 356q0 119 68 211t228 178q-88 85 -125.5 164.5t-37.5 163.5q0 152 108 242t299 90q190 0 296 -89t106 -231q0 -116 -75.5 -195.5t-250.5 -174.5l322 -312q108 125 182 351h215q-103 -285 -264 -482q57 -55 102 -73.5t115 -18.5h102l-53 -180h-86q-100 0 -172.5 27.5 t-132.5 87.5l-23 22q-195 -157 -448 -157q-213 0 -344 98.5t-131 277.5zM281 360q0 -97 71.5 -152.5t198.5 -55.5q174 0 311 108l-364 354q-120 -64 -168.5 -122.5t-48.5 -131.5zM414 1079q0 -60 35.5 -116.5t111.5 -128.5q57 32 86.5 49t65.5 42.5t52.5 45.5t28 47.5 t11.5 58.5q0 74 -52 118t-145 44q-92 0 -143 -43.5t-51 -116.5z" /><glyph unicode="'" horiz-adv-x="448" d="M127 1485l195 45l-21 -518h-154z" /><glyph unicode="(" horiz-adv-x="770" d="M94 565q0 248 104.5 474t293.5 405h229q-205 -180 -313.5 -410.5t-108.5 -468.5q0 -229 104.5 -452t317.5 -420h-232q-395 386 -395 872z" /><glyph unicode=")" horiz-adv-x="772" d="M49 -307q213 197 317.5 420t104.5 452q0 238 -108.5 468.5t-313.5 410.5h230q189 -179 294 -405t105 -474q0 -484 -397 -872h-232z" /><glyph unicode="*" horiz-adv-x="813" d="M45 1157l70 160l221 -107l-19 246h181l-21 -246l221 109l70 -162l-250 -82l187 -205l-144 -102l-153 221l-156 -221l-146 104l191 203z" /><glyph unicode="+" horiz-adv-x="1153" d="M152 451v170h321v323h182v-323h359l-56 -170h-303v-326h-182v326h-321z" /><glyph unicode="," horiz-adv-x="481" d="M37 -256q80 58 123 118t49 138h-107v227l256 56v-228q0 -132 -45 -215q-52 -96 -188 -184z" /><glyph unicode="-" horiz-adv-x="620" d="M74 446v177h489l-63 -177h-426z" /><glyph unicode="." horiz-adv-x="493" d="M123 0v221l248 55v-276h-248z" /><glyph unicode="/" horiz-adv-x="806" d="M45 -41l506 1468h211l-506 -1468h-211z" /><glyph unicode="0" d="M74 686q0 338 145 528.5t406 190.5t406 -190.5t145 -528.5q0 -335 -144.5 -520.5t-406.5 -185.5t-406.5 185.5t-144.5 520.5zM295 686q0 -263 88 -393.5t242 -130.5t241.5 130.5t87.5 393.5q0 264 -89 400.5t-240 136.5t-240.5 -136.5t-89.5 -400.5z" /><glyph unicode="1" d="M106 1053l502 331h168v-1198h412l-62 -186h-958v186h395v934l-383 -252z" /><glyph unicode="2" d="M123 0v111q0 245 115 378q57 67 135 110.5t213 98.5q142 58 188 88q97 63 107 166q2 15 2 31q0 119 -77 178.5t-212 59.5q-180 0 -393 -95l-39 179q231 100 452 100q230 0 359 -105.5t129 -310.5q0 -75 -19.5 -136t-50.5 -103.5t-84 -81.5t-104.5 -65t-128.5 -58 q-155 -64 -219.5 -100.5t-92.5 -71.5q-63 -75 -65 -187h803l-64 -186h-954z" /><glyph unicode="3" d="M92 72l29 186q195 -98 403 -98q166 0 261.5 68t95.5 184q0 217 -355 217h-116v170h94q156 0 243 59.5t87 167.5q0 89 -72.5 142t-198.5 53q-88 0 -193 -23.5t-192 -62.5l-35 174q224 96 457 96q214 0 336.5 -96.5t122.5 -251.5q0 -115 -60.5 -199.5t-173.5 -120.5v-6 q131 -25 205 -109t74 -216q0 -195 -153.5 -310.5t-399.5 -115.5q-270 0 -459 92z" /><glyph unicode="4" d="M27 342v123l755 919h209v-858h244l-61 -184h-183v-342h-213v342h-751zM303 526h475v580z" /><glyph unicode="5" d="M133 88l35 178q193 -106 405 -106q163 0 256 72t93 206q0 126 -86.5 183t-253.5 57h-373l49 706h809l-63 -186h-564l-22 -334h188q268 0 402.5 -106t134.5 -312q0 -224 -150 -345t-413 -121q-251 0 -447 108z" /><glyph unicode="6" d="M88 631q0 167 49 308.5t139.5 245t227 162t303.5 58.5q129 0 254 -41l-25 -184q-105 43 -221 43q-206 0 -338 -126t-160 -335q169 141 392 141q208 0 339.5 -123t131.5 -321q0 -144 -71.5 -254t-191.5 -167.5t-268 -57.5q-259 0 -410 175.5t-151 475.5zM311 569 q15 -195 105 -301t239 -106q133 0 218 80t85 211q0 127 -80.5 197.5t-209.5 70.5q-96 0 -189.5 -40.5t-167.5 -111.5z" /><glyph unicode="7" d="M70 1384h1087v-129l-696 -1255h-236l670 1198h-766z" /><glyph unicode="8" d="M84 371q0 210 199 325q-84 47 -125 127.5t-41 173.5q0 181 141.5 294.5t372.5 113.5q222 0 356.5 -106.5t134.5 -278.5q0 -180 -168 -303q220 -100 220 -322q0 -185 -149.5 -300t-406.5 -115q-238 0 -386 103.5t-148 287.5zM299 399q0 -115 91.5 -178t240.5 -63 q150 0 235.5 63.5t85.5 169.5q0 88 -58.5 134.5t-168.5 64.5l-276 47q-73 -42 -111.5 -104.5t-38.5 -133.5zM332 1010q0 -157 194 -193l265 -47q124 92 124 231q0 108 -79.5 168t-212.5 60q-135 0 -213 -59t-78 -160z" /><glyph unicode="9" d="M74 930q0 146 70 255t188 164.5t266 55.5q265 0 414 -179.5t149 -496.5q0 -127 -24 -238t-76.5 -205.5t-129.5 -162t-188.5 -105.5t-248.5 -38q-168 0 -306 53l25 184q131 -55 276 -55q197 0 306.5 112.5t134.5 323.5q-155 -119 -373 -119q-219 0 -351 123t-132 328z M295 940q0 -128 81 -202t220 -74q94 0 183 33.5t159 93.5q-12 207 -102.5 318.5t-245.5 111.5q-130 0 -212.5 -74.5t-82.5 -206.5z" /><glyph unicode=":" horiz-adv-x="493" d="M123 0v221l248 55v-276h-248zM123 842v221l248 55v-276h-248z" /><glyph unicode=";" horiz-adv-x="493" d="M41 -256q80 58 123 118t49 138h-107v227l256 56v-228q0 -132 -45 -215q-52 -96 -188 -184zM123 842v221l248 55v-276h-248z" /><glyph unicode="&#x3c;" horiz-adv-x="1153" d="M168 471v129l754 401l82 -157l-592 -307v-2l592 -310l-82 -157z" /><glyph unicode="=" horiz-adv-x="1153" d="M152 242v170h862l-56 -170h-806zM152 655v170h862l-56 -170h-806z" /><glyph unicode="&#x3e;" horiz-adv-x="1153" d="M168 225l592 310v2l-592 307l82 157l754 -401v-129l-754 -403z" /><glyph unicode="?" horiz-adv-x="1003" d="M63 1311q203 94 408 94q216 0 335.5 -98t119.5 -271q0 -55 -14 -103t-32.5 -80t-54 -67.5t-60 -54.5t-69.5 -51q-122 -85 -159.5 -128.5t-40.5 -119.5l-2 -47h-162q0 102 10 156q13 76 54 129.5t139 124.5q41 30 59 44t46 39.5t39 44.5t20.5 47t9.5 60q0 94 -69 146.5 t-194 52.5q-171 0 -352 -82zM311 0v176l203 45v-221h-203z" /><glyph unicode="@" horiz-adv-x="1828" d="M102 623q0 226 118 407.5t321 282t450 100.5q329 0 532 -176t203 -455q0 -205 -109.5 -338t-293.5 -133q-98 0 -162 39t-84 101h-8q-45 -58 -113.5 -92.5t-152.5 -34.5q-125 0 -207 76t-82 227q0 184 119 308t291 124q162 0 223 -113l35 72h127l-68 -332 q-20 -100 -20 -143q0 -97 96 -97q100 0 162.5 96.5t62.5 237.5q0 150 -75.5 260.5t-199 165t-276.5 54.5q-139 0 -266 -47.5t-221 -130t-149.5 -202.5t-55.5 -257q0 -238 160 -370t432 -132q192 0 389 59l27 -143q-208 -66 -426 -66q-370 0 -574.5 177.5t-204.5 474.5z M692 639q0 -87 39.5 -129.5t112.5 -42.5q86 0 142.5 54t74.5 145l31 165q-57 91 -156 91q-108 0 -176 -83t-68 -200z" /><glyph unicode="A" horiz-adv-x="1378" d="M37 0l569 1389h174l561 -1389h-227l-127 322h-592l-127 -322h-231zM467 506h448l-215 557h-16z" /><glyph unicode="B" horiz-adv-x="1288" d="M172 0v1384h500q463 0 463 -348q0 -218 -189 -297v-4q128 -27 200.5 -115t72.5 -227q0 -193 -135.5 -293t-366.5 -100h-545zM385 184h334q278 0 278 219q0 110 -70 164t-214 54h-328v-437zM385 803h299q115 0 176.5 51.5t61.5 153.5q0 100 -59.5 146t-180.5 46h-297v-397 z" /><glyph unicode="C" horiz-adv-x="1337" d="M106 690q0 156 50.5 287.5t144.5 226t234 148t311 53.5q117 0 224 -23t177 -59l-20 -188q-183 86 -373 86q-244 0 -385 -142.5t-141 -382.5q0 -244 144 -388t390 -144q93 0 194 21t175 57l20 -183q-168 -79 -409 -79q-177 0 -318 54.5t-231.5 151t-138.5 225t-48 279.5z " /><glyph unicode="D" horiz-adv-x="1531" d="M172 0v1384h498q755 0 755 -673q0 -166 -46 -296t-139 -223.5t-241 -142.5t-346 -49h-481zM385 184h297q263 0 392.5 135t129.5 394t-132 373t-413 114h-274v-1016z" /><glyph unicode="E" horiz-adv-x="1187" d="M168 274v1110h924l-64 -184h-647v-436h567l-8 -182h-559v-256q0 -34 4.5 -57.5t17.5 -39.5t27 -25t42.5 -13.5t55 -5.5t72.5 -1h494l-64 -184h-590q-143 0 -207.5 67t-64.5 207z" /><glyph unicode="F" horiz-adv-x="1095" d="M172 0v1384h907l-61 -184h-633v-450h565l-10 -183h-555v-567h-213z" /><glyph unicode="G" horiz-adv-x="1495" d="M106 686q0 214 94 376t273.5 252.5t421.5 90.5q227 0 410 -80l-21 -190q-187 86 -389 86q-264 0 -415.5 -142.5t-151.5 -386.5q0 -163 70.5 -284t193 -182.5t280.5 -61.5q77 0 155 13.5t124 35.5v444l213 56v-611q-89 -54 -225.5 -88t-282.5 -34q-174 0 -316 52.5 t-237 146t-146 223.5t-51 284z" /><glyph unicode="H" horiz-adv-x="1478" d="M172 0v1384h213v-577h709v577h213v-1384h-213v623h-709v-623h-213z" /><glyph unicode="I" horiz-adv-x="565" d="M176 0v1384h213v-1384h-213z" /><glyph unicode="J" horiz-adv-x="835" d="M61 184h199q102 0 148.5 51t46.5 156v993h213v-993q0 -189 -102.5 -290t-295.5 -101h-145z" /><glyph unicode="K" horiz-adv-x="1333" d="M172 0v1384h213v-577h172l451 577h254l-531 -671l342 -467q25 -34 51.5 -47t73.5 -13h111l-62 -186h-119q-76 0 -122 23t-84 75l-363 494q-12 18 -25 24.5t-36 6.5h-113v-623h-213z" /><glyph unicode="L" horiz-adv-x="1107" d="M168 274v1110h213v-1058q0 -78 30 -110t105 -32h543l-64 -184h-555q-143 0 -207.5 67t-64.5 207z" /><glyph unicode="M" horiz-adv-x="1771" d="M172 0v1384h182l531 -948h8l528 948h178v-1384h-204v928l-441 -750h-139l-438 758v-936h-205z" /><glyph unicode="N" horiz-adv-x="1501" d="M172 0v1384h162l794 -999v999h201v-1384h-147l-809 1024v-1024h-201z" /><glyph unicode="O" horiz-adv-x="1609" d="M106 690q0 165 56.5 302t153 226t222.5 138t267 49t266.5 -49t222 -138t153 -226t56.5 -302q0 -163 -55.5 -298.5t-150.5 -224.5t-222 -138t-270 -49t-270 49t-222.5 138t-151 224.5t-55.5 298.5zM328 690q0 -123 39 -225t105 -167.5t152 -101.5t181 -36t181 36 t152 101.5t105 167.5t39 225q0 125 -38 227.5t-103.5 169t-152 102.5t-183.5 36t-183.5 -36t-152 -102.5t-103.5 -169t-38 -227.5z" /><glyph unicode="P" horiz-adv-x="1228" d="M172 0v1384h485q514 0 514 -434q0 -99 -27 -181.5t-84.5 -150t-157.5 -105.5t-234 -38h-283v-475h-213zM385 659h266q154 0 227.5 68.5t73.5 206.5q0 140 -73.5 203t-221.5 63h-272v-541z" /><glyph unicode="Q" horiz-adv-x="1609" d="M106 690q0 165 56.5 302t153 226t222.5 138t267 49t266.5 -49t222 -138t153 -226t56.5 -302q0 -265 -136.5 -445t-358.5 -239l127 -133q26 -27 52 -36t73 -9h176l-62 -186h-170q-70 0 -117.5 21t-93.5 71l-235 248q-135 7 -253.5 59t-207.5 141t-140 220t-51 288z M328 692q0 -124 39 -226.5t105 -168.5t152 -101.5t181 -35.5t181 35.5t152 101.5t105 168.5t39 226.5q0 123 -38 225t-103.5 168.5t-152 103t-183.5 36.5t-183.5 -36.5t-152 -103t-103.5 -168.5t-38 -225z" /><glyph unicode="R" horiz-adv-x="1361" d="M172 0v1384h504q240 0 371 -101.5t131 -311.5q0 -164 -83 -276t-249 -148l205 -301q27 -40 46.5 -51t67.5 -11h107l-51 -184h-127q-74 0 -116 22.5t-77 75.5l-256 379q-18 24 -34 31.5t-52 7.5h-174v-516h-213zM385 698h285q143 0 217 69.5t74 193.5q0 239 -293 239h-283 v-502z" /><glyph unicode="S" horiz-adv-x="1150" d="M94 76l25 194q205 -108 416 -108q152 0 230.5 61.5t78.5 163.5q0 42 -15 75t-39.5 55t-65.5 41t-83 33t-101 32q-2 0 -4 0.5t-4 1.5q-50 15 -80 24.5t-77.5 29t-77.5 38.5t-65.5 49.5t-55 65t-33.5 82.5t-14 104q0 97 37 171.5t104 121.5t157 70.5t198 23.5 q158 0 366 -57l-14 -187q-196 62 -348 62q-279 0 -279 -191q0 -29 7 -52.5t17.5 -41.5t32 -34t41 -27.5t55 -24.5t63 -22t75.5 -23q49 -15 74.5 -23t69 -23.5t67 -27.5t58 -31.5t53.5 -38.5t41.5 -46t33.5 -57t19 -68t8 -82q0 -206 -143.5 -318t-378.5 -112q-113 0 -233 26 t-216 70z" /><glyph unicode="T" horiz-adv-x="1222" d="M29 1200v184h1181l-63 -184h-438v-1200h-213v1200h-467z" /><glyph unicode="U" horiz-adv-x="1443" d="M160 514v870h213v-862q0 -175 88.5 -266.5t261.5 -91.5q172 0 260 92t88 266v862h213v-870q0 -267 -144.5 -400.5t-416.5 -133.5q-273 0 -418 133.5t-145 400.5z" /><glyph unicode="V" horiz-adv-x="1380" d="M16 1384h242l434 -1054h15l417 1054h240l-582 -1384h-172z" /><glyph unicode="W" horiz-adv-x="2035" d="M25 1384h235l322 -1040h14l348 1040h148l348 -1040h14l322 1040h235l-475 -1384h-180l-330 981h-14l-332 -981h-180z" /><glyph unicode="X" horiz-adv-x="1325" d="M33 0l495 698l-493 686h252l372 -520l357 520h256l-486 -677l506 -707h-256l-383 543l-368 -543h-252z" /><glyph unicode="Y" horiz-adv-x="1251" d="M16 1384h246l367 -659h6l360 659h240l-500 -878v-506h-213v510z" /><glyph unicode="Z" horiz-adv-x="1255" d="M57 0v113l807 1087h-727l-59 184h1102v-106l-813 -1094h852l-60 -184h-1102z" /><glyph unicode="[" horiz-adv-x="735" d="M172 -295v1700h502v-170h-299v-1360h299v-170h-502z" /><glyph unicode="\" horiz-adv-x="847" d="M66 1427h210l506 -1468h-211z" /><glyph unicode="]" horiz-adv-x="735" d="M61 -125h299v1360h-299v170h502v-1700h-502v170z" /><glyph unicode="^" horiz-adv-x="1153" d="M178 612l309 488h177l309 -488l-148 -82l-250 363h-2l-247 -363z" /><glyph unicode="_" horiz-adv-x="1081" d="M33 -156h1016v-139h-1016v139z" /><glyph unicode="`" horiz-adv-x="733" d="M106 1413l99 166l430 -258l-78 -123z" /><glyph unicode="a" horiz-adv-x="1120" d="M82 334q0 289 412 289h65q122 0 215 -19v86q0 119 -65.5 171t-206.5 52q-145 0 -309 -45l-19 172q180 47 354 47q230 0 343.5 -92.5t113.5 -283.5v-514q0 -136 4 -197h-180l-16 119h-5q-104 -139 -313 -139q-175 0 -284 97t-109 257zM297 330q0 -87 58 -136t157 -49 q113 0 187.5 59.5t74.5 155.5v107h-317q-160 0 -160 -137z" /><glyph unicode="b" horiz-adv-x="1292" d="M156 76v1368l211 57v-551h6q137 137 350 137q100 0 186.5 -34t152 -99.5t103 -168.5t37.5 -232q0 -269 -155.5 -421t-434.5 -152q-123 0 -249 27.5t-207 68.5zM367 205q115 -49 249 -49q180 0 275.5 100.5t95.5 286.5q0 177 -83.5 273.5t-231.5 96.5q-135 0 -220 -80 t-85 -219v-409z" /><glyph unicode="c" horiz-adv-x="1052" d="M90 532q0 259 161.5 407t424.5 148q154 0 295 -53l-29 -172q-127 51 -250 51q-180 0 -283.5 -100.5t-103.5 -275.5q0 -170 100 -276.5t283 -106.5q142 0 270 57l25 -166q-150 -65 -319 -65q-260 0 -417 148t-157 404z" /><glyph unicode="d" horiz-adv-x="1300" d="M90 524q0 137 42.5 246.5t115 177.5t164.5 103.5t196 35.5q111 0 192.5 -38t127.5 -101l6 2v494l211 57v-1216q0 -97 4 -285h-178q-17 110 -19 129h-4q-120 -149 -348 -149q-108 0 -200 34.5t-161.5 101t-109 171.5t-39.5 237zM305 522q0 -180 90 -273t236 -93 q101 0 177.5 42.5t125.5 114.5v332q0 113 -83.5 189.5t-215.5 76.5q-151 0 -240.5 -104t-89.5 -285z" /><glyph unicode="e" horiz-adv-x="1157" d="M90 520q0 256 139.5 411.5t386.5 155.5q116 0 204.5 -37t142.5 -103.5t81 -154t27 -194.5q0 -71 -10 -133h-752q6 -147 96 -229t265 -82q166 0 311 51l23 -162q-168 -63 -357 -63q-266 0 -411.5 140.5t-145.5 399.5zM311 621h549v22q0 48 -10.5 92.5t-36.5 90t-79 73 t-128 27.5q-133 0 -211 -84t-84 -221z" /><glyph unicode="f" horiz-adv-x="843" d="M152 0v1094q0 209 114.5 317.5t329.5 108.5q118 0 240 -31l-27 -170q-102 29 -197 29q-132 0 -191 -59.5t-59 -194.5v-43h429l-62 -177h-367v-874h-210z" /><glyph unicode="g" horiz-adv-x="1296" d="M90 524q0 168 74 298t196.5 197.5t270.5 67.5q220 0 325 -151h7l20 133h158v-1020q0 -275 -126.5 -406.5t-379.5 -131.5q-186 0 -340 55l18 170q63 -24 146.5 -38.5t154.5 -14.5q162 0 239 86t77 270v70q-116 -119 -324 -119q-229 0 -372.5 147.5t-143.5 386.5zM305 537 q0 -173 95 -272t241 -99q171 0 289 135v350q0 117 -78 189.5t-205 72.5q-150 0 -246 -101t-96 -275z" /><glyph unicode="h" horiz-adv-x="1230" d="M156 0v1444l211 57v-522q178 108 364 108q184 0 273 -102q88 -97 88 -289v-696h-211v674q0 109 -41 164q-54 73 -174 73q-75 0 -156.5 -27t-142.5 -69v-815h-211z" /><glyph unicode="i" horiz-adv-x="538" d="M160 1251v207l219 58v-265h-219zM164 0v1069h211v-1069h-211z" /><glyph unicode="j" horiz-adv-x="530" d="M-170 -459l14 168q68 -22 140 -22q100 0 140 59t40 203v1120h211v-1112q0 -446 -357 -446q-100 0 -188 30zM162 1251v207l217 58v-265h-217z" /><glyph unicode="k" horiz-adv-x="1159" d="M154 0v1444l211 57v-837h118l348 405h256l-423 -483l254 -357q23 -33 44.5 -43t65.5 -10h98l-59 -176h-100q-71 0 -122 26t-95 87l-250 350q-10 15 -20 19.5t-29 4.5h-86v-487h-211z" /><glyph unicode="l" horiz-adv-x="538" d="M164 0v1444l211 57v-1501h-211z" /><glyph unicode="m" horiz-adv-x="1871" d="M156 0v1069h186l16 -96q161 114 353 114q182 0 278 -126q189 126 387 126q357 0 357 -399v-688h-211v641q0 140 -37 197q-49 73 -162 73q-69 0 -149.5 -26.5t-135.5 -67.5q11 -72 11 -141v-676h-211v641q0 141 -44.5 205.5t-154.5 64.5q-144 0 -272 -96v-815h-211z" /><glyph unicode="n" horiz-adv-x="1230" d="M156 0v1069h186l16 -96q168 114 373 114q169 0 265 -94.5t96 -296.5v-696h-211v674q0 119 -52.5 178t-162.5 59q-78 0 -157.5 -27t-141.5 -69v-815h-211z" /><glyph unicode="o" horiz-adv-x="1269" d="M90 530q0 250 146 403.5t399 153.5t399 -153.5t146 -403.5q0 -248 -144.5 -399t-400.5 -151t-400.5 151t-144.5 399zM305 535q0 -180 91 -282.5t239 -102.5t239 102.5t91 282.5q0 179 -90.5 281t-239.5 102t-239.5 -102t-90.5 -281z" /><glyph unicode="p" horiz-adv-x="1310" d="M156 -471v1540h170l22 -141h6q122 159 348 159q228 0 373.5 -145t145.5 -399q0 -129 -41 -236t-112 -178t-168 -110t-208 -39q-100 0 -185 30t-140 78v-502zM367 291q50 -61 134 -98t177 -37q155 0 241.5 105t86.5 276q0 182 -93.5 278t-242.5 96q-134 0 -218.5 -73.5 t-84.5 -190.5v-356z" /><glyph unicode="q" horiz-adv-x="1302" d="M90 526q0 129 43 236.5t117 177.5t172 108.5t209 38.5q118 0 201.5 -40.5t130.5 -110.5h6l20 133h158v-1509l-211 -47v598q-124 -131 -332 -131q-106 0 -199.5 37t-163.5 105.5t-110.5 172.5t-40.5 231zM305 530q0 -174 92 -274t244 -100q98 0 174 42t121 109v344 q0 110 -80 186t-211 76q-149 0 -244.5 -101.5t-95.5 -281.5z" /><glyph unicode="r" horiz-adv-x="794" d="M156 0v1069h186l14 -149q73 68 171.5 113t209.5 54l-16 -206q-204 -16 -354 -123v-758h-211z" /><glyph unicode="s" horiz-adv-x="942" d="M94 47l19 182q160 -75 327 -75q111 0 166.5 37.5t55.5 101.5q0 32 -13 56t-41.5 42t-59.5 31t-80 31q-22 8 -34 12q-37 13 -61.5 23t-61 27.5t-61 34t-52.5 42.5t-44.5 53.5t-27.5 65t-11 80.5q0 75 31.5 132.5t88 92.5t129 53t158.5 18q144 0 291 -45l-18 -172 q-129 48 -260 48q-209 0 -209 -121q0 -26 11 -47t27 -35.5t49.5 -30.5t61.5 -26t80 -27q165 -55 239 -122.5t74 -193.5q0 -164 -118.5 -249.5t-305.5 -85.5t-350 67z" /><glyph unicode="t" horiz-adv-x="811" d="M147 373v932l211 43v-297h379l-61 -177h-318v-518q0 -105 41 -147.5t148 -42.5q92 0 170 20l12 -163q-109 -31 -225 -31q-188 0 -272.5 88t-84.5 293z" /><glyph unicode="u" horiz-adv-x="1216" d="M143 406v663h211v-663q0 -254 254 -254q125 0 189.5 65t64.5 189v663h211v-663q0 -205 -118 -315.5t-347 -110.5q-236 0 -350.5 101t-114.5 325z" /><glyph unicode="v" horiz-adv-x="1132" d="M20 1069h230l317 -778h6l312 778h227l-465 -1069h-155z" /><glyph unicode="w" horiz-adv-x="1685" d="M25 1069h229l235 -764h9l262 764h158l274 -764h8l232 764h229l-377 -1069h-170l-272 748h-8l-267 -748h-172z" /><glyph unicode="x" horiz-adv-x="1130" d="M29 0l405 547l-391 522h248l268 -369h4l260 369h246l-387 -518l420 -551h-248l-295 397h-4l-281 -397h-245z" /><glyph unicode="y" horiz-adv-x="1114" d="M20 1069h236l315 -772h7l286 772h230l-648 -1558l-192 51l215 479z" /><glyph unicode="z" horiz-adv-x="1060" d="M66 0v98l622 795h-547l-59 176h909v-102l-620 -791h633l-60 -176h-878z" /><glyph unicode="{" horiz-adv-x="819" d="M82 481v148q101 10 145.5 53t44.5 154v276q0 140 78 216.5t234 76.5h174v-170h-152q-77 0 -103 -34t-26 -107v-267q0 -113 -38.5 -177t-114.5 -91v-8q76 -27 114.5 -91t38.5 -177v-267q0 -73 26 -107t103 -34h152v-170h-174q-156 0 -234 76.5t-78 216.5v276 q0 111 -44.5 154t-145.5 53z" /><glyph unicode="|" horiz-adv-x="538" d="M172 0v1495h195v-1495h-195z" /><glyph unicode="}" horiz-adv-x="819" d="M61 -125h152q77 0 103 34t26 107v267q0 113 39 177t115 91v8q-76 27 -115 91t-39 177v267q0 73 -26 107t-103 34h-152v170h175q156 0 233.5 -76.5t77.5 -216.5v-276q0 -111 44.5 -154t145.5 -53v-148q-101 -10 -145.5 -53t-44.5 -154v-276q0 -140 -77.5 -216.5 t-233.5 -76.5h-175v170z" /><glyph unicode="~" horiz-adv-x="1153" d="M76 481q131 224 313 224q50 0 95.5 -17t80 -41t67 -48t68.5 -41t72 -17q107 0 184 151l121 -98q-123 -223 -313 -223q-62 0 -120 25t-95 54.5t-83.5 54.5t-88.5 25q-103 0 -187 -137z" /><glyph unicode="&#xa1;" horiz-adv-x="569" d="M174 -334l31 1018h162l28 -1018h-221zM184 848v221h203v-176z" /><glyph unicode="&#xa2;" d="M172 530q0 226 123.5 369.5t333.5 177.5v193h145v-183q143 -3 279 -53l-29 -172q-127 51 -250 51v-759q138 0 266 57l25 -166q-135 -59 -291 -65v-173h-145v181q-212 31 -334.5 174t-122.5 368zM387 537q0 -134 62.5 -230.5t179.5 -132.5v719q-116 -35 -179 -128 t-63 -228z" /><glyph unicode="&#xa3;" d="M152 631v168h174v166q0 217 121 328.5t352 111.5q165 0 313 -57l-22 -174q-122 55 -269 55q-148 0 -215 -64t-67 -202v-164h448l-53 -168h-395v-193q0 -97 -28 -156.5t-99 -99.5v-6h749l-59 -176h-948v154q172 87 172 299v178h-174z" /><glyph unicode="&#xa4;" horiz-adv-x="1134" d="M82 358l151 150q-57 83 -57 203q0 117 57 200l-151 150l125 110l141 -143q97 57 219 57t219 -57l142 143l125 -110l-152 -150q57 -83 57 -200q0 -120 -57 -203l152 -150l-125 -110l-142 143q-97 -57 -219 -57t-219 57l-141 -143zM367 711q0 -92 54.5 -150.5t145.5 -58.5 t146 58.5t55 150.5t-55 149.5t-146 57.5t-145.5 -57.5t-54.5 -149.5z" /><glyph unicode="&#xa5;" d="M16 1384h246l367 -659h6l360 659h240l-328 -571h254l-49 -149h-289l-82 -146h383l-47 -151h-342v-367h-213v367h-358v151h354l-84 146h-291v149h203z" /><glyph unicode="&#xa6;" horiz-adv-x="538" d="M172 0v559h195v-559h-195zM172 950v545h195v-545h-195z" /><glyph unicode="&#xa7;" horiz-adv-x="1101" d="M143 700q0 147 158 215q-129 75 -129 211q0 132 106.5 205.5t294.5 73.5q148 0 287 -49l-20 -162q-133 47 -265 47q-208 0 -208 -111q0 -50 49 -76t221 -81q168 -54 244.5 -113.5t76.5 -163.5q0 -72 -36.5 -131t-110.5 -96q113 -73 113 -207q0 -137 -108.5 -209.5 t-289.5 -72.5q-207 0 -354 75l21 160q154 -72 323 -72q96 0 155.5 29t59.5 88q0 19 -6 34.5t-21.5 28.5t-29 22t-42.5 20t-47 17t-58 17.5t-60 18.5q-78 25 -130.5 48t-100 56t-70.5 77t-23 101zM338 727q0 -57 53 -88.5t213 -87.5l60 -21q47 20 73.5 57.5t26.5 80.5 q0 25 -11 44.5t-31.5 35t-54 30.5t-72 28.5t-93.5 31.5q-9 3 -13 4l-49 16q-102 -45 -102 -131z" /><glyph unicode="&#xa8;" horiz-adv-x="733" d="M45 1274v188l223 58v-246h-223zM461 1274v188l223 58v-246h-223z" /><glyph unicode="&#xa9;" horiz-adv-x="1751" d="M94 692q0 147 53 279.5t150 233.5t246.5 160.5t330.5 59.5t331 -59.5t247.5 -160.5t151 -233.5t53.5 -279.5t-53.5 -279.5t-151 -233.5t-247.5 -160.5t-331 -59.5t-330.5 59.5t-246.5 160.5t-150 233.5t-53 279.5zM266 692q0 -163 70.5 -294.5t210.5 -211.5t327 -80 q141 0 257.5 46t193 126t118.5 186.5t42 227.5t-42 227.5t-118.5 186.5t-193 126t-257.5 46q-187 0 -327 -80t-210.5 -211.5t-70.5 -294.5zM516 707q0 168 103 268t288 100q109 0 209 -39l-14 -139q-95 37 -182 37q-112 0 -175 -57.5t-63 -171.5t63.5 -175t182.5 -61 q91 0 178 37l10 -139q-100 -39 -209 -39q-188 0 -289.5 106t-101.5 273z" /><glyph unicode="&#xaa;" horiz-adv-x="768" d="M70 911q0 97 63 146t180 49h43q78 0 142 -12v34q0 62 -39 87.5t-117 25.5q-86 0 -199 -29l-12 134q125 32 242 32q146 0 220.5 -57t74.5 -184v-295q0 -83 4 -142h-142l-12 82h-8q-25 -39 -74 -65.5t-121 -26.5q-103 0 -174 56.5t-71 164.5zM242 915q0 -43 31 -70.5 t85 -27.5q58 0 99 32t41 79v63h-156q-100 0 -100 -76z" /><glyph unicode="&#xab;" horiz-adv-x="1165" d="M29 516l446 418l115 -94l-320 -324l322 -328l-119 -102zM561 516l447 418l114 -94l-319 -324l321 -328l-118 -102z" /><glyph unicode="&#xac;" horiz-adv-x="1153" d="M139 645v172h850v-563h-184v391h-666z" /><glyph unicode="&#xad;" horiz-adv-x="620" d="M74 446v177h489l-63 -177h-426z" /><glyph unicode="&#xae;" horiz-adv-x="1751" d="M94 692q0 147 53 279.5t150 233.5t246.5 160.5t330.5 59.5t331 -59.5t247.5 -160.5t151 -233.5t53.5 -279.5t-53.5 -279.5t-151 -233.5t-247.5 -160.5t-331 -59.5t-330.5 59.5t-246.5 160.5t-150 233.5t-53 279.5zM266 692q0 -163 70.5 -294.5t210.5 -211.5t327 -80 q141 0 257.5 46t193 126t118.5 186.5t42 227.5t-42 227.5t-118.5 186.5t-193 126t-257.5 46q-187 0 -327 -80t-210.5 -211.5t-70.5 -294.5zM602 338v727h285q280 0 280 -225q0 -160 -153 -217l80 -125q14 -19 25.5 -25t35.5 -6h53l-39 -129h-84q-64 0 -100 53l-113 178 q-17 25 -51 25h-61v-256h-158zM760 727h137q107 0 107 109q0 54 -27.5 75t-95.5 21h-121v-205z" /><glyph unicode="&#xaf;" horiz-adv-x="733" d="M68 1311v155h600v-155h-600z" /><glyph unicode="&#xb0;" horiz-adv-x="688" d="M74 1155q0 113 77.5 188.5t192.5 75.5t192.5 -75.5t77.5 -188.5t-77.5 -188.5t-192.5 -75.5t-192.5 75.5t-77.5 188.5zM221 1155q0 -53 34 -88t89 -35t89 35t34 88t-34 88t-89 35t-89 -35t-34 -88z" /><glyph unicode="&#xb1;" horiz-adv-x="1153" d="M150 0v170h862l-56 -170h-806zM150 641v170h321v299h182v-299h359l-56 -170h-303v-299h-182v299h-321z" /><glyph unicode="&#xb2;" horiz-adv-x="798" d="M80 713v73q0 160 65 236q25 30 64 55t69.5 38t88.5 36q45 17 66.5 27t45.5 27.5t33.5 39.5t9.5 53q0 115 -147 115q-108 0 -238 -57l-24 153q149 60 290 60q144 0 226 -65.5t82 -198.5q0 -42 -7.5 -76t-25.5 -60t-35.5 -44.5t-49 -36.5t-54 -28.5t-62.5 -27.5 q-85 -36 -123 -56t-57 -44q-16 -21 -16 -68h448l-51 -151h-598z" /><glyph unicode="&#xb3;" horiz-adv-x="798" d="M76 743l12 154q121 -45 254 -45q93 0 141.5 30.5t48.5 88.5q0 59 -47 82.5t-133 23.5h-137v137h150q70 0 107.5 26t37.5 77q0 100 -154 100q-103 0 -233 -47l-25 143q141 56 283 56q141 0 224 -59t83 -167q0 -119 -108 -178v-4q145 -48 145 -196q0 -134 -102 -201.5 t-265 -67.5q-159 0 -282 47z" /><glyph unicode="&#xb4;" horiz-adv-x="733" d="M111 1325l426 254l98 -166l-451 -215z" /><glyph unicode="&#xb6;" horiz-adv-x="1228" d="M70 1026q0 164 114 271.5t301 107.5h727l-53 -154h-155v-1452h-183v1452h-182v-1452h-188v844q-171 17 -276 122t-105 261z" /><glyph unicode="&#xb7;" horiz-adv-x="493" d="M123 453v221l248 55v-276h-248z" /><glyph unicode="&#xb8;" horiz-adv-x="733" d="M156 -465l6 127q68 -22 147 -22q127 0 127 73q0 66 -114 66h-148l57 221h142l-25 -104h39q101 0 161 -47.5t60 -131.5q0 -92 -71 -149t-197 -57q-97 0 -184 24z" /><glyph unicode="&#xb9;" horiz-adv-x="798" d="M72 1370l323 182h137v-688h218l-56 -151h-555v151h201v473l-205 -112z" /><glyph unicode="&#xba;" horiz-adv-x="784" d="M37 1036q0 159 91 250.5t265 91.5t264.5 -91.5t90.5 -250.5q0 -161 -92 -253.5t-263 -92.5t-263.5 92.5t-92.5 253.5zM215 1036q0 -99 46.5 -155t131.5 -56t131.5 56t46.5 155q0 97 -46 151t-132 54t-132 -54t-46 -151z" /><glyph unicode="&#xbb;" horiz-adv-x="1163" d="M41 188l321 328l-319 324l115 94l446 -418l-444 -430zM571 188l322 328l-320 324l115 94l447 -418l-445 -430z" /><glyph unicode="&#xbc;" horiz-adv-x="2048" d="M74 1202l323 182h138v-688h217l-56 -151h-555v151h201v473l-205 -112zM504 63l997 1395l162 -98l-997 -1395zM1153 168v111l457 559h182v-521h164l-55 -149h-109v-168h-180v168h-459zM1372 317h240v304z" /><glyph unicode="&#xbd;" horiz-adv-x="2048" d="M53 1202l324 182h137v-688h217l-55 -151h-555v151h201v473l-205 -112zM485 63l998 1395l162 -98l-998 -1395zM1352 0v74q0 159 65 235q25 30 63.5 55t69.5 38.5t88 35.5q44 17 66 27.5t46.5 27.5t34 39.5t9.5 53.5q0 114 -147 114q-108 0 -238 -57l-25 154q147 59 291 59 t225.5 -65.5t81.5 -198.5q0 -50 -13 -89.5t-31 -65t-53 -49.5t-61.5 -36.5t-74.5 -32.5q-85 -36 -123 -56t-57 -44q-17 -22 -17 -67h449l-51 -152h-598z" /><glyph unicode="&#xbe;" horiz-adv-x="2048" d="M123 575l12 154q121 -45 254 -45q93 0 142 30.5t49 88.5q0 59 -47.5 82.5t-133.5 23.5h-137v138h150q145 0 145 102q0 100 -154 100q-103 0 -233 -47l-25 144q138 55 283 55q141 0 224 -58.5t83 -166.5q0 -120 -108 -179v-4q145 -48 145 -196q0 -134 -102 -201.5 t-264 -67.5q-160 0 -283 47zM473 63l997 1395l162 -98l-997 -1395zM1143 168v111l456 559h183v-521h164l-56 -149h-108v-168h-180v168h-459zM1362 317h240v304z" /><glyph unicode="&#xbf;" horiz-adv-x="1003" d="M78 33q0 55 14 103t32.5 80t53.5 67.5t59.5 54.5t69.5 51q66 46 96.5 69.5t58 53.5t36 57.5t10.5 67.5l2 47h162q0 -102 -10 -156q-13 -76 -54 -129.5t-139 -124.5q-41 -30 -59 -44t-46 -39.5t-39 -44.5t-20.5 -47t-9.5 -60q0 -94 68.5 -146.5t193.5 -52.5q171 0 352 82 l31 -164q-203 -94 -408 -94q-215 0 -334.5 98t-119.5 271zM489 848v221h203v-176z" /><glyph unicode="&#xc0;" horiz-adv-x="1378" d="M37 0l569 1389h174l561 -1389h-227l-127 322h-592l-127 -322h-231zM371 1716l98 164l430 -256l-78 -123zM467 506h448l-215 557h-16z" /><glyph unicode="&#xc1;" horiz-adv-x="1378" d="M37 0l569 1389h174l561 -1389h-227l-127 322h-592l-127 -322h-231zM467 506h448l-215 557h-16zM506 1626l426 254l98 -164l-450 -215z" /><glyph unicode="&#xc2;" horiz-adv-x="1378" d="M37 0l569 1389h174l561 -1389h-227l-127 322h-592l-127 -322h-231zM369 1567l229 307h186l228 -307l-123 -68l-187 219h-20l-186 -219zM467 506h448l-215 557h-16z" /><glyph unicode="&#xc3;" horiz-adv-x="1378" d="M37 0l569 1389h174l561 -1389h-227l-127 322h-592l-127 -322h-231zM315 1577q39 111 103 168t141 57q41 0 86 -17t76.5 -37t66.5 -37t60 -17q65 0 98 102l121 -57q-30 -102 -87 -154.5t-130 -52.5q-51 0 -108 26t-105 52t-78 26q-36 0 -68.5 -29.5t-52.5 -82.5zM467 506 h448l-215 557h-16z" /><glyph unicode="&#xc4;" horiz-adv-x="1378" d="M37 0l569 1389h174l561 -1389h-227l-127 322h-592l-127 -322h-231zM373 1552v189l223 57v-246h-223zM467 506h448l-215 557h-16zM788 1552v189l224 57v-246h-224z" /><glyph unicode="&#xc5;" horiz-adv-x="1378" d="M37 0l569 1389h174l561 -1389h-227l-127 322h-592l-127 -322h-231zM467 506h448l-215 557h-16zM473 1692q0 88 63 148.5t156 60.5q94 0 156.5 -60.5t62.5 -148.5q0 -90 -62 -150.5t-155 -60.5q-94 0 -157.5 61.5t-63.5 149.5zM606 1690q0 -37 24.5 -62.5t61.5 -25.5 t61.5 25.5t24.5 62.5t-25 63.5t-61 26.5q-37 0 -61.5 -26t-24.5 -64z" /><glyph unicode="&#xc6;" horiz-adv-x="1953" d="M4 0l850 1384h1004l-64 -184h-647v-436h567l-8 -182h-559v-256q0 -34 4.5 -57.5t17.5 -39.5t27 -25t42.5 -13.5t55 -5.5t72.5 -1h494l-64 -184h-590q-143 0 -207.5 67t-64.5 207v50h-492l-194 -324h-244zM551 506h383v637z" /><glyph unicode="&#xc7;" horiz-adv-x="1337" d="M106 690q0 156 50.5 287.5t144.5 226t234 148t311 53.5q117 0 224 -23t177 -59l-20 -188q-183 86 -373 86q-244 0 -385 -142.5t-141 -382.5q0 -244 144 -388t390 -144q93 0 194 21t175 57l20 -183q-168 -79 -409 -79h-13l-18 -84h39q101 0 161 -47.5t60 -131.5 q0 -92 -71 -149t-197 -57q-98 0 -185 24l7 127q68 -22 147 -22q127 0 127 73q0 66 -115 66h-147l55 213q-282 42 -434 232t-152 466z" /><glyph unicode="&#xc8;" horiz-adv-x="1187" d="M168 274v1110h924l-64 -184h-647v-436h567l-8 -182h-559v-256q0 -34 4.5 -57.5t17.5 -39.5t27 -25t42.5 -13.5t55 -5.5t72.5 -1h494l-64 -184h-590q-143 0 -207.5 67t-64.5 207zM297 1716l98 164l430 -256l-77 -123z" /><glyph unicode="&#xc9;" horiz-adv-x="1187" d="M168 274v1110h924l-64 -184h-647v-436h567l-8 -182h-559v-256q0 -34 4.5 -57.5t17.5 -39.5t27 -25t42.5 -13.5t55 -5.5t72.5 -1h494l-64 -184h-590q-143 0 -207.5 67t-64.5 207zM430 1626l426 254l98 -164l-450 -215z" /><glyph unicode="&#xca;" horiz-adv-x="1187" d="M168 274v1110h924l-64 -184h-647v-436h567l-8 -182h-559v-256q0 -34 4.5 -57.5t17.5 -39.5t27 -25t42.5 -13.5t55 -5.5t72.5 -1h494l-64 -184h-590q-143 0 -207.5 67t-64.5 207zM303 1567l229 307h187l227 -307l-123 -68l-186 219h-21l-186 -219z" /><glyph unicode="&#xcb;" horiz-adv-x="1187" d="M168 274v1110h924l-64 -184h-647v-436h567l-8 -182h-559v-256q0 -34 4.5 -57.5t17.5 -39.5t27 -25t42.5 -13.5t55 -5.5t72.5 -1h494l-64 -184h-590q-143 0 -207.5 67t-64.5 207zM315 1552v189l224 57v-246h-224zM731 1552v189l223 57v-246h-223z" /><glyph unicode="&#xcc;" horiz-adv-x="565" d="M-43 1716l98 164l430 -256l-77 -123zM176 0v1384h213v-1384h-213z" /><glyph unicode="&#xcd;" horiz-adv-x="565" d="M96 1626l426 254l99 -164l-451 -215zM176 0v1384h213v-1384h-213z" /><glyph unicode="&#xce;" horiz-adv-x="565" d="M-37 1567l230 307h186l227 -307l-123 -68l-186 219h-21l-186 -219zM176 0v1384h213v-1384h-213z" /><glyph unicode="&#xcf;" horiz-adv-x="565" d="M-33 1552v189l223 57v-246h-223zM176 0v1384h213v-1384h-213zM383 1552v189l223 57v-246h-223z" /><glyph unicode="&#xd0;" horiz-adv-x="1556" d="M33 598v172h164v614h497q756 0 756 -673q0 -166 -46 -296t-139 -223.5t-241 -142.5t-346 -49h-481v598h-164zM410 184h297q263 0 392.5 135t129.5 394t-132 373t-413 114h-274v-430h329l-59 -172h-270v-414z" /><glyph unicode="&#xd1;" horiz-adv-x="1501" d="M172 0v1384h162l794 -999v999h201v-1384h-147l-809 1024v-1024h-201zM381 1577q39 111 103 168t141 57q53 0 108.5 -27t102.5 -54t77 -27q66 0 99 102l121 -57q-30 -102 -87.5 -154.5t-130.5 -52.5q-51 0 -107.5 26t-104.5 52t-78 26q-36 0 -68.5 -29.5t-52.5 -82.5z" /><glyph unicode="&#xd2;" horiz-adv-x="1609" d="M106 690q0 165 56.5 302t153 226t222.5 138t267 49t266.5 -49t222 -138t153 -226t56.5 -302q0 -163 -55.5 -298.5t-150.5 -224.5t-222 -138t-270 -49t-270 49t-222.5 138t-151 224.5t-55.5 298.5zM328 690q0 -123 39 -225t105 -167.5t152 -101.5t181 -36t181 36 t152 101.5t105 167.5t39 225q0 125 -38 227.5t-103.5 169t-152 102.5t-183.5 36t-183.5 -36t-152 -102.5t-103.5 -169t-38 -227.5zM514 1716l98 164l430 -256l-77 -123z" /><glyph unicode="&#xd3;" horiz-adv-x="1609" d="M106 690q0 165 56.5 302t153 226t222.5 138t267 49t266.5 -49t222 -138t153 -226t56.5 -302q0 -163 -55.5 -298.5t-150.5 -224.5t-222 -138t-270 -49t-270 49t-222.5 138t-151 224.5t-55.5 298.5zM328 690q0 -123 39 -225t105 -167.5t152 -101.5t181 -36t181 36 t152 101.5t105 167.5t39 225q0 125 -38 227.5t-103.5 169t-152 102.5t-183.5 36t-183.5 -36t-152 -102.5t-103.5 -169t-38 -227.5zM569 1626l426 254l99 -164l-451 -215z" /><glyph unicode="&#xd4;" horiz-adv-x="1609" d="M106 690q0 165 56.5 302t153 226t222.5 138t267 49t266.5 -49t222 -138t153 -226t56.5 -302q0 -163 -55.5 -298.5t-150.5 -224.5t-222 -138t-270 -49t-270 49t-222.5 138t-151 224.5t-55.5 298.5zM328 690q0 -123 39 -225t105 -167.5t152 -101.5t181 -36t181 36 t152 101.5t105 167.5t39 225q0 125 -38 227.5t-103.5 169t-152 102.5t-183.5 36t-183.5 -36t-152 -102.5t-103.5 -169t-38 -227.5zM487 1567l230 307h186l227 -307l-122 -68l-187 219h-20l-187 -219z" /><glyph unicode="&#xd5;" horiz-adv-x="1609" d="M106 690q0 165 56.5 302t153 226t222.5 138t267 49t266.5 -49t222 -138t153 -226t56.5 -302q0 -163 -55.5 -298.5t-150.5 -224.5t-222 -138t-270 -49t-270 49t-222.5 138t-151 224.5t-55.5 298.5zM328 690q0 -123 39 -225t105 -167.5t152 -101.5t181 -36t181 36 t152 101.5t105 167.5t39 225q0 125 -38 227.5t-103.5 169t-152 102.5t-183.5 36t-183.5 -36t-152 -102.5t-103.5 -169t-38 -227.5zM430 1577q39 111 103 168t141 57q41 0 86 -17t76.5 -37t66.5 -37t60 -17q65 0 98 102l121 -57q-30 -102 -87 -154.5t-130 -52.5 q-51 0 -108 26t-105 52t-78 26q-36 0 -68.5 -29.5t-52.5 -82.5z" /><glyph unicode="&#xd6;" horiz-adv-x="1609" d="M106 690q0 165 56.5 302t153 226t222.5 138t267 49t266.5 -49t222 -138t153 -226t56.5 -302q0 -163 -55.5 -298.5t-150.5 -224.5t-222 -138t-270 -49t-270 49t-222.5 138t-151 224.5t-55.5 298.5zM328 690q0 -123 39 -225t105 -167.5t152 -101.5t181 -36t181 36 t152 101.5t105 167.5t39 225q0 125 -38 227.5t-103.5 169t-152 102.5t-183.5 36t-183.5 -36t-152 -102.5t-103.5 -169t-38 -227.5zM485 1552v189l224 57v-246h-224zM901 1552v189l223 57v-246h-223z" /><glyph unicode="&#xd7;" horiz-adv-x="1153" d="M178 264l277 275l-277 274l125 123l275 -272l272 272l125 -123l-277 -274l277 -275l-125 -125l-277 277l-270 -277z" /><glyph unicode="&#xd8;" horiz-adv-x="1609" d="M106 690q0 165 56.5 302t153 226t222.5 138t267 49q179 0 332 -78l108 164l131 -82l-110 -166q111 -96 174 -236.5t63 -316.5q0 -163 -55.5 -298.5t-150.5 -224.5t-222 -138t-270 -49q-182 0 -332 75l-104 -157l-129 82l104 157q-112 95 -175 236t-63 317zM328 692 q0 -234 131 -381l571 858q-103 56 -225 56q-97 0 -183.5 -36t-152 -102.5t-103.5 -168.5t-38 -226zM580 215q101 -55 225 -55q95 0 181 36t152 101.5t105 167.5t39 225q0 236 -131 383z" /><glyph unicode="&#xd9;" horiz-adv-x="1443" d="M160 514v870h213v-862q0 -175 88.5 -266.5t261.5 -91.5q172 0 260 92t88 266v862h213v-870q0 -267 -144.5 -400.5t-416.5 -133.5q-273 0 -418 133.5t-145 400.5zM399 1716l99 164l430 -256l-78 -123z" /><glyph unicode="&#xda;" horiz-adv-x="1443" d="M160 514v870h213v-862q0 -175 88.5 -266.5t261.5 -91.5q172 0 260 92t88 266v862h213v-870q0 -267 -144.5 -400.5t-416.5 -133.5q-273 0 -418 133.5t-145 400.5zM553 1626l426 254l98 -164l-450 -215z" /><glyph unicode="&#xdb;" horiz-adv-x="1443" d="M160 514v870h213v-862q0 -175 88.5 -266.5t261.5 -91.5q172 0 260 92t88 266v862h213v-870q0 -267 -144.5 -400.5t-416.5 -133.5q-273 0 -418 133.5t-145 400.5zM412 1567l229 307h186l228 -307l-123 -68l-187 219h-20l-186 -219z" /><glyph unicode="&#xdc;" horiz-adv-x="1443" d="M160 514v870h213v-862q0 -175 88.5 -266.5t261.5 -91.5q172 0 260 92t88 266v862h213v-870q0 -267 -144.5 -400.5t-416.5 -133.5q-273 0 -418 133.5t-145 400.5zM408 1552v189l223 57v-246h-223zM823 1552v189l224 57v-246h-224z" /><glyph unicode="&#xdd;" horiz-adv-x="1251" d="M16 1384h246l367 -659h6l360 659h240l-500 -878v-506h-213v510zM492 1626l426 254l98 -164l-451 -215z" /><glyph unicode="&#xde;" horiz-adv-x="1228" d="M172 0v1384h213v-210h272q514 0 514 -435q0 -99 -27 -181.5t-84.5 -150t-157.5 -105.5t-234 -38h-283v-264h-213zM385 449h266q154 0 227.5 68t73.5 206q0 140 -73.5 203t-221.5 63h-272v-540z" /><glyph unicode="&#xdf;" horiz-adv-x="1396" d="M156 0v1090q0 215 139 325q132 105 364 105q205 0 324 -89.5t119 -236.5q0 -89 -39.5 -147.5t-130.5 -122.5q-85 -61 -110 -87t-25 -61q0 -44 36 -68.5t150 -66.5l111 -41q237 -87 237 -289q0 -164 -115.5 -247.5t-314.5 -83.5q-174 0 -344 67l18 182q150 -75 324 -75 q225 0 225 133q0 51 -39.5 86.5t-134.5 70.5l-110 41q-138 51 -198 115t-60 162q0 82 43 140t141 126q83 59 109 89.5t26 84.5q0 64 -62 105t-180 41q-150 0 -227 -70q-65 -62 -65 -188v-1090h-211z" /><glyph unicode="&#xe0;" horiz-adv-x="1120" d="M82 334q0 289 412 289h65q122 0 215 -19v86q0 119 -65.5 171t-206.5 52q-145 0 -309 -45l-19 172q180 47 354 47q230 0 343.5 -92.5t113.5 -283.5v-514q0 -136 4 -197h-180l-16 119h-5q-104 -139 -313 -139q-175 0 -284 97t-109 257zM260 1413l98 166l430 -258l-77 -123z M297 330q0 -87 58 -136t157 -49q113 0 187.5 59.5t74.5 155.5v107h-317q-160 0 -160 -137z" /><glyph unicode="&#xe1;" horiz-adv-x="1120" d="M82 334q0 289 412 289h65q122 0 215 -19v86q0 119 -65.5 171t-206.5 52q-145 0 -309 -45l-19 172q180 47 354 47q230 0 343.5 -92.5t113.5 -283.5v-514q0 -136 4 -197h-180l-16 119h-5q-104 -139 -313 -139q-175 0 -284 97t-109 257zM297 330q0 -87 58 -136t157 -49 q113 0 187.5 59.5t74.5 155.5v107h-317q-160 0 -160 -137zM362 1325l426 254l99 -166l-451 -215z" /><glyph unicode="&#xe2;" horiz-adv-x="1120" d="M82 334q0 289 412 289h65q122 0 215 -19v86q0 119 -65.5 171t-206.5 52q-145 0 -309 -45l-19 172q180 47 354 47q230 0 343.5 -92.5t113.5 -283.5v-514q0 -136 4 -197h-180l-16 119h-5q-104 -139 -313 -139q-175 0 -284 97t-109 257zM250 1270l229 307h187l227 -307 l-123 -68l-186 219h-21l-186 -219zM297 330q0 -87 58 -136t157 -49q113 0 187.5 59.5t74.5 155.5v107h-317q-160 0 -160 -137z" /><glyph unicode="&#xe3;" horiz-adv-x="1120" d="M82 334q0 289 412 289h65q122 0 215 -19v86q0 119 -65.5 171t-206.5 52q-145 0 -309 -45l-19 172q180 47 354 47q230 0 343.5 -92.5t113.5 -283.5v-514q0 -136 4 -197h-180l-16 119h-5q-104 -139 -313 -139q-175 0 -284 97t-109 257zM201 1296q39 111 102.5 167.5 t140.5 56.5q53 0 109 -27t103 -53.5t77 -26.5q64 0 98 100l121 -55q-30 -102 -87 -154.5t-130 -52.5q-51 0 -108 26.5t-105 52.5t-78 26q-36 0 -68 -30t-52 -85zM297 330q0 -87 58 -136t157 -49q113 0 187.5 59.5t74.5 155.5v107h-317q-160 0 -160 -137z" /><glyph unicode="&#xe4;" horiz-adv-x="1120" d="M82 334q0 289 412 289h65q122 0 215 -19v86q0 119 -65.5 171t-206.5 52q-145 0 -309 -45l-19 172q180 47 354 47q230 0 343.5 -92.5t113.5 -283.5v-514q0 -136 4 -197h-180l-16 119h-5q-104 -139 -313 -139q-175 0 -284 97t-109 257zM250 1274v188l223 58v-246h-223z M297 330q0 -87 58 -136t157 -49q113 0 187.5 59.5t74.5 155.5v107h-317q-160 0 -160 -137zM666 1274v188l223 58v-246h-223z" /><glyph unicode="&#xe5;" horiz-adv-x="1120" d="M82 334q0 289 412 289h65q122 0 215 -19v86q0 119 -65.5 171t-206.5 52q-145 0 -309 -45l-19 172q180 47 354 47q230 0 343.5 -92.5t113.5 -283.5v-514q0 -136 4 -197h-180l-16 119h-5q-104 -139 -313 -139q-175 0 -284 97t-109 257zM297 330q0 -87 58 -136t157 -49 q113 0 187.5 59.5t74.5 155.5v107h-317q-160 0 -160 -137zM350 1413q0 88 63 148.5t158 60.5q93 0 155 -60.5t62 -148.5q0 -90 -62 -150.5t-157 -60.5q-93 0 -156 60.5t-63 150.5zM483 1411q0 -38 24.5 -63t61.5 -25t61.5 25.5t24.5 62.5t-25 63.5t-61 26.5q-37 0 -61.5 -26 t-24.5 -64z" /><glyph unicode="&#xe6;" horiz-adv-x="1830" d="M82 332q0 149 102.5 220t311.5 71h75q115 0 203 -19v86q0 117 -64 170t-208 53q-146 0 -309 -45l-19 172q181 47 354 47q147 0 238 -40.5t141 -126.5q141 167 389 167q219 0 334 -133.5t115 -357.5q0 -65 -8 -123h-754q5 -152 95.5 -235.5t269.5 -83.5q162 0 307 51 l22 -162q-168 -63 -356 -63q-161 0 -280 51t-173 151q-57 -101 -157.5 -151.5t-229.5 -50.5q-182 0 -290.5 95.5t-108.5 256.5zM297 330q0 -87 57.5 -136t159.5 -49q114 0 187 59t73 156v107h-319q-158 0 -158 -137zM985 627h549q0 138 -61 218.5t-191 80.5q-133 0 -211 -83 t-86 -216z" /><glyph unicode="&#xe7;" horiz-adv-x="1052" d="M90 532q0 259 161.5 407t424.5 148q154 0 295 -53l-29 -172q-127 51 -250 51q-180 0 -283.5 -100.5t-103.5 -275.5q0 -170 100 -276.5t283 -106.5q142 0 270 57l25 -166q-150 -65 -319 -65h-23l-18 -84h39q101 0 161 -47.5t60 -131.5q0 -92 -71.5 -149t-197.5 -57 q-97 0 -184 24l6 127q68 -22 148 -22q127 0 127 73q0 66 -115 66h-147l55 217q-193 42 -303.5 182t-110.5 354z" /><glyph unicode="&#xe8;" horiz-adv-x="1157" d="M90 520q0 256 139.5 411.5t386.5 155.5q116 0 204.5 -37t142.5 -103.5t81 -154t27 -194.5q0 -71 -10 -133h-752q6 -147 96 -229t265 -82q166 0 311 51l23 -162q-168 -63 -357 -63q-266 0 -411.5 140.5t-145.5 399.5zM295 1413l98 166l430 -258l-78 -123zM311 621h549v22 q0 48 -10.5 92.5t-36.5 90t-79 73t-128 27.5q-133 0 -211 -84t-84 -221z" /><glyph unicode="&#xe9;" horiz-adv-x="1157" d="M90 520q0 256 139.5 411.5t386.5 155.5q116 0 204.5 -37t142.5 -103.5t81 -154t27 -194.5q0 -71 -10 -133h-752q6 -147 96 -229t265 -82q166 0 311 51l23 -162q-168 -63 -357 -63q-266 0 -411.5 140.5t-145.5 399.5zM311 621h549v22q0 48 -10.5 92.5t-36.5 90t-79 73 t-128 27.5q-133 0 -211 -84t-84 -221zM416 1325l426 254l98 -166l-451 -215z" /><glyph unicode="&#xea;" horiz-adv-x="1157" d="M90 520q0 256 139.5 411.5t386.5 155.5q116 0 204.5 -37t142.5 -103.5t81 -154t27 -194.5q0 -71 -10 -133h-752q6 -147 96 -229t265 -82q166 0 311 51l23 -162q-168 -63 -357 -63q-266 0 -411.5 140.5t-145.5 399.5zM283 1270l229 307h186l228 -307l-123 -68l-187 219 h-20l-186 -219zM311 621h549v22q0 48 -10.5 92.5t-36.5 90t-79 73t-128 27.5q-133 0 -211 -84t-84 -221z" /><glyph unicode="&#xeb;" horiz-adv-x="1157" d="M90 520q0 256 139.5 411.5t386.5 155.5q116 0 204.5 -37t142.5 -103.5t81 -154t27 -194.5q0 -71 -10 -133h-752q6 -147 96 -229t265 -82q166 0 311 51l23 -162q-168 -63 -357 -63q-266 0 -411.5 140.5t-145.5 399.5zM293 1274v188l223 58v-246h-223zM311 621h549v22 q0 48 -10.5 92.5t-36.5 90t-79 73t-128 27.5q-133 0 -211 -84t-84 -221zM709 1274v188l223 58v-246h-223z" /><glyph unicode="&#xec;" horiz-adv-x="538" d="M-74 1413l99 166l430 -258l-78 -123zM164 0v1069h211v-1069h-211z" /><glyph unicode="&#xed;" horiz-adv-x="538" d="M102 1325l426 254l99 -166l-451 -215zM164 0v1069h211v-1069h-211z" /><glyph unicode="&#xee;" horiz-adv-x="538" d="M-49 1270l229 307h187l227 -307l-123 -68l-186 219h-21l-186 -219zM164 0v1069h211v-1069h-211z" /><glyph unicode="&#xef;" horiz-adv-x="538" d="M-51 1274v188l223 58v-246h-223zM164 0v1069h211v-1069h-211zM365 1274v188l223 58v-246h-223z" /><glyph unicode="&#xf0;" horiz-adv-x="1263" d="M90 504q0 234 145 375t367 141q189 0 301 -115l4 2q-105 238 -334 353l-84 -158l-143 61l86 160q-99 43 -213 72l72 127q100 -16 217 -58l84 154l141 -62l-80 -147q239 -118 382 -342t143 -485q0 -289 -147.5 -445.5t-395.5 -156.5q-116 0 -216 36t-173 102.5 t-114.5 165.5t-41.5 220zM305 508q0 -166 95 -264.5t239 -98.5q141 0 234.5 97t93.5 262t-93.5 257.5t-238.5 92.5q-146 0 -238 -92.5t-92 -253.5z" /><glyph unicode="&#xf1;" horiz-adv-x="1230" d="M156 0v1069h186l16 -96q168 114 373 114q169 0 265 -94.5t96 -296.5v-696h-211v674q0 119 -52.5 178t-162.5 59q-78 0 -157.5 -27t-141.5 -69v-815h-211zM258 1296q39 111 103 167.5t141 56.5q53 0 109 -27t103 -53.5t77 -26.5q64 0 98 100l121 -55q-30 -102 -87 -154.5 t-130 -52.5q-51 0 -108 26.5t-105 52.5t-78 26q-36 0 -68.5 -30t-52.5 -85z" /><glyph unicode="&#xf2;" horiz-adv-x="1269" d="M90 530q0 250 146 403.5t399 153.5t399 -153.5t146 -403.5q0 -248 -144.5 -399t-400.5 -151t-400.5 151t-144.5 399zM305 535q0 -180 91 -282.5t239 -102.5t239 102.5t91 282.5q0 179 -90.5 281t-239.5 102t-239.5 -102t-90.5 -281zM315 1413l99 166l430 -258l-78 -123z " /><glyph unicode="&#xf3;" horiz-adv-x="1269" d="M90 530q0 250 146 403.5t399 153.5t399 -153.5t146 -403.5q0 -248 -144.5 -399t-400.5 -151t-400.5 151t-144.5 399zM305 535q0 -180 91 -282.5t239 -102.5t239 102.5t91 282.5q0 179 -90.5 281t-239.5 102t-239.5 -102t-90.5 -281zM412 1325l426 254l98 -166l-451 -215z " /><glyph unicode="&#xf4;" horiz-adv-x="1269" d="M90 530q0 250 146 403.5t399 153.5t399 -153.5t146 -403.5q0 -248 -144.5 -399t-400.5 -151t-400.5 151t-144.5 399zM305 535q0 -180 91 -282.5t239 -102.5t239 102.5t91 282.5q0 179 -90.5 281t-239.5 102t-239.5 -102t-90.5 -281zM315 1270l230 307h186l227 -307 l-122 -68l-187 219h-20l-187 -219z" /><glyph unicode="&#xf5;" horiz-adv-x="1269" d="M90 530q0 250 146 403.5t399 153.5t399 -153.5t146 -403.5q0 -248 -144.5 -399t-400.5 -151t-400.5 151t-144.5 399zM266 1296q39 111 103 167.5t141 56.5q53 0 109 -27t103 -53.5t77 -26.5q64 0 98 100l121 -55q-30 -102 -87 -154.5t-130 -52.5q-51 0 -108 26.5 t-105 52.5t-78 26q-36 0 -68.5 -30t-52.5 -85zM305 535q0 -180 91 -282.5t239 -102.5t239 102.5t91 282.5q0 179 -90.5 281t-239.5 102t-239.5 -102t-90.5 -281z" /><glyph unicode="&#xf6;" horiz-adv-x="1269" d="M90 530q0 250 146 403.5t399 153.5t399 -153.5t146 -403.5q0 -248 -144.5 -399t-400.5 -151t-400.5 151t-144.5 399zM305 535q0 -180 91 -282.5t239 -102.5t239 102.5t91 282.5q0 179 -90.5 281t-239.5 102t-239.5 -102t-90.5 -281zM317 1274v188l224 58v-246h-224z M733 1274v188l223 58v-246h-223z" /><glyph unicode="&#xf7;" horiz-adv-x="1153" d="M152 451v170h862l-56 -170h-806zM463 63v193l221 49v-242h-221zM463 776v193l221 49v-242h-221z" /><glyph unicode="&#xf8;" horiz-adv-x="1294" d="M102 530q0 250 146 403.5t399 153.5q166 0 289 -69l117 151l112 -79l-121 -156q148 -151 148 -404q0 -248 -144.5 -399t-402.5 -151q-167 0 -285 65l-110 -143l-113 80l113 145q-148 151 -148 403zM317 532q0 -142 60 -239l444 577q-76 48 -174 48q-149 0 -239.5 -103 t-90.5 -283zM475 195q76 -45 172 -45q148 0 239 101.5t91 278.5q0 143 -59 240z" /><glyph unicode="&#xf9;" horiz-adv-x="1216" d="M143 406v663h211v-663q0 -254 254 -254q125 0 189.5 65t64.5 189v663h211v-663q0 -205 -118 -315.5t-347 -110.5q-236 0 -350.5 101t-114.5 325zM266 1413l99 166l430 -258l-78 -123z" /><glyph unicode="&#xfa;" horiz-adv-x="1216" d="M143 406v663h211v-663q0 -254 254 -254q125 0 189.5 65t64.5 189v663h211v-663q0 -205 -118 -315.5t-347 -110.5q-236 0 -350.5 101t-114.5 325zM438 1325l426 254l99 -166l-451 -215z" /><glyph unicode="&#xfb;" horiz-adv-x="1216" d="M143 406v663h211v-663q0 -254 254 -254q125 0 189.5 65t64.5 189v663h211v-663q0 -205 -118 -315.5t-347 -110.5q-236 0 -350.5 101t-114.5 325zM289 1270l229 307h187l227 -307l-123 -68l-186 219h-21l-186 -219z" /><glyph unicode="&#xfc;" horiz-adv-x="1216" d="M143 406v663h211v-663q0 -254 254 -254q125 0 189.5 65t64.5 189v663h211v-663q0 -205 -118 -315.5t-347 -110.5q-236 0 -350.5 101t-114.5 325zM291 1274v188l223 58v-246h-223zM707 1274v188l223 58v-246h-223z" /><glyph unicode="&#xfd;" horiz-adv-x="1114" d="M20 1069h236l315 -772h7l286 772h230l-648 -1558l-192 51l215 479zM416 1325l426 254l98 -166l-451 -215z" /><glyph unicode="&#xfe;" horiz-adv-x="1310" d="M156 -471v1915l211 57v-567h6q110 153 329 153q149 0 265.5 -62.5t185 -186.5t68.5 -293q0 -130 -41 -237t-112 -178.5t-168 -110.5t-208 -39q-100 0 -185 30t-140 78v-502zM367 291q50 -61 134 -98t177 -37q155 0 241.5 105t86.5 276q0 182 -93.5 278t-242.5 96 q-134 0 -218.5 -73.5t-84.5 -190.5v-356z" /><glyph unicode="&#xff;" horiz-adv-x="1114" d="M20 1069h236l315 -772h7l286 772h230l-648 -1558l-192 51l215 479zM254 1274v188l223 58v-246h-223zM670 1274v188l223 58v-246h-223z" /><glyph unicode="&#x152;" horiz-adv-x="2213" d="M104 692q0 164 56 300t152.5 225.5t223 138.5t269.5 49q228 0 389 -113v92h924l-64 -184h-647v-436h567l-8 -182h-559v-256q0 -83 36.5 -112.5t147.5 -29.5h529l-64 -184h-590q-179 0 -241 115q-74 -61 -183.5 -98t-236.5 -37q-143 0 -269.5 49t-223 138t-152.5 225 t-56 300zM326 692q0 -248 140.5 -389t362.5 -141q211 0 365 123v815q-154 123 -365 123q-108 0 -200 -35.5t-159.5 -102t-105.5 -167.5t-38 -226z" /><glyph unicode="&#x153;" horiz-adv-x="2033" d="M90 532q0 249 146 402t399 153q155 0 265 -58.5t167 -156.5h6q60 97 167 156t257 59q220 0 335.5 -130.5t115.5 -356.5q0 -44 -11 -135h-751q6 -151 98.5 -231t265.5 -80q163 0 308 51l22 -162q-168 -63 -356 -63q-162 0 -278.5 52.5t-172.5 157.5h-10q-62 -96 -173 -153 t-263 -57q-249 0 -393 152.5t-144 399.5zM305 535q0 -179 91.5 -282t240.5 -103q146 0 236 101t90 281q0 181 -90 283.5t-238 102.5q-149 0 -239.5 -102t-90.5 -281zM1188 621h549v28q0 77 -25 137.5t-84.5 100t-146.5 39.5q-132 0 -209.5 -84t-83.5 -221z" /><glyph unicode="&#x178;" horiz-adv-x="1251" d="M16 1384h246l367 -659h6l360 659h240l-500 -878v-506h-213v510zM309 1552v189l223 57v-246h-223zM725 1552v189l223 57v-246h-223z" /><glyph unicode="&#x2c6;" horiz-adv-x="733" d="M43 1270l229 307h187l227 -307l-123 -68l-186 219h-21l-186 -219z" /><glyph unicode="&#x2dc;" horiz-adv-x="733" d="M-10 1296q39 111 102.5 167.5t140.5 56.5q53 0 109 -27t103 -53.5t77 -26.5q65 0 99 100l120 -55q-30 -102 -87 -154.5t-130 -52.5q-51 0 -108 26.5t-105 52.5t-78 26q-36 0 -68 -30t-52 -85z" /><glyph unicode="&#x2000;" horiz-adv-x="950" /><glyph unicode="&#x2001;" horiz-adv-x="1901" /><glyph unicode="&#x2002;" horiz-adv-x="950" /><glyph unicode="&#x2003;" horiz-adv-x="1901" /><glyph unicode="&#x2004;" horiz-adv-x="633" /><glyph unicode="&#x2005;" horiz-adv-x="475" /><glyph unicode="&#x2006;" horiz-adv-x="316" /><glyph unicode="&#x2007;" horiz-adv-x="316" /><glyph unicode="&#x2008;" horiz-adv-x="237" /><glyph unicode="&#x2009;" horiz-adv-x="380" /><glyph unicode="&#x200a;" horiz-adv-x="105" /><glyph unicode="&#x2010;" horiz-adv-x="620" d="M74 446v177h489l-63 -177h-426z" /><glyph unicode="&#x2011;" horiz-adv-x="620" d="M74 446v177h489l-63 -177h-426z" /><glyph unicode="&#x2012;" horiz-adv-x="620" d="M74 446v177h489l-63 -177h-426z" /><glyph unicode="&#x2013;" horiz-adv-x="1024" d="M70 446v177h909l-66 -177h-843z" /><glyph unicode="&#x2014;" horiz-adv-x="2048" d="M66 446v177h1933l-64 -177h-1869z" /><glyph unicode="&#x2018;" horiz-adv-x="448" d="M90 887v227q0 132 45 215q51 95 189 184l88 -88q-80 -58 -123 -118t-49 -138h106v-227z" /><glyph unicode="&#x2019;" horiz-adv-x="448" d="M37 995q80 58 123 118t49 138h-107v228l256 55v-227q0 -132 -45 -215q-53 -97 -188 -185z" /><glyph unicode="&#x201a;" horiz-adv-x="448" d="M37 -256q80 58 123 118t49 138h-107v227l256 56v-228q0 -132 -45 -215q-52 -96 -188 -184z" /><glyph unicode="&#x201c;" horiz-adv-x="868" d="M90 887v227q0 132 45 215q51 95 189 184l88 -88q-80 -58 -123 -118t-49 -138h106v-227zM510 887v227q0 132 45 215q52 96 188 184l88 -88q-80 -58 -123 -118t-49 -138h107v-227z" /><glyph unicode="&#x201d;" horiz-adv-x="868" d="M37 995q80 58 123 118t49 138h-107v228l256 55v-227q0 -132 -45 -215q-53 -97 -188 -185zM457 995q80 58 123 118t49 138h-107v228l256 55v-227q0 -132 -45 -215q-53 -97 -188 -185z" /><glyph unicode="&#x201e;" horiz-adv-x="868" d="M37 -260q80 58 123 118t49 138h-107v227l256 56v-228q0 -132 -45 -215q-52 -96 -188 -184zM457 -260q80 58 123 118t49 138h-107v227l256 56v-228q0 -132 -45 -215q-52 -96 -188 -184z" /><glyph unicode="&#x2022;" horiz-adv-x="1001" d="M164 598q0 132 98 223.5t238 91.5t239 -91.5t99 -223.5q0 -133 -99 -224t-239 -91t-238 91t-98 224z" /><glyph unicode="&#x2026;" horiz-adv-x="1443" d="M123 0v221l248 55v-276h-248zM598 0v221l248 55v-276h-248zM1073 0v221l248 55v-276h-248z" /><glyph unicode="&#x202f;" horiz-adv-x="380" /><glyph unicode="&#x2039;" horiz-adv-x="632" d="M29 516l446 418l115 -94l-320 -324l322 -328l-119 -102z" /><glyph unicode="&#x203a;" horiz-adv-x="632" d="M41 188l321 328l-319 324l115 94l446 -418l-444 -430z" /><glyph unicode="&#x205f;" horiz-adv-x="475" /><glyph unicode="&#x20ac;" d="M37 459v149h149q-2 37 -2 76q0 37 2 57h-149v150h166q46 242 204.5 378t434.5 136q204 0 362 -76l-22 -182q-151 74 -336 74q-178 0 -279 -83t-137 -247h571l-47 -150h-546q-2 -29 -2 -57q0 -39 4 -76h565l-47 -149h-484q41 -141 146 -218t272 -77q185 0 340 74l19 -181 q-154 -77 -371 -77q-143 0 -256 35.5t-189 101t-124 150.5t-72 192h-172z" /><glyph unicode="&#x2122;" horiz-adv-x="1474" d="M25 1260v124h563l-43 -124h-174v-461h-158v461h-188zM672 799v585h209l88 -198q39 -85 65 -172q24 80 66 172l88 198h209v-585h-150v397q-30 -87 -61 -154l-88 -198h-129l-88 198q-29 65 -62 154v-397h-147z" /><glyph unicode="&#x25fc;" horiz-adv-x="1064" d="M0 0v1065h1065v-1065h-1065z" /></font>
</defs>
</svg>
